Posted : 3 Days ago

  1. Jade.Dynasty.2019.1080p.BluRay.x264-nikt0.mkv
  2. General
  3. Unique ID                                : 193191998214513724812747706240990542331 (0x91576CE97CC0E449AF548A22F94579FB)
  4. Complete name                            : D:\Jade.Dynasty.2019.1080p.BluRay.x264-nikt0.mkv
  5. Format                                   : Matroska
  6. Format version                           : Version 4
  7. File size                                : 4.38 GiB
  8. Duration                                 : 1 h 41 min
  9. Overall bit rate                         : 6 206 kb/s
  10. Movie name                               : Jade.Dynasty.2019.1080p.BluRay.x264-nikt0
  11. Encoded date                             : UTC 2020-05-14 22:10:23 / UTC 2020-05-13T13:58:58Z
  12. Writing application                      : mkvmerge v38.0.0 ('The Silent Type') 64-bit
  13. Writing library                          : libebml v1.3.9 + libmatroska v1.5.2 / Lavf57.7.2
  14.  
  15. Video
  16. ID                                       : 1
  17. Format                                   : AVC
  18. Format/Info                              : Advanced Video Codec
  19. Format profile                           : [email protected]
  20. Format settings                          : CABAC / 4 Ref Frames
  21. Format settings, CABAC                   : Yes
  22. Format settings, Reference frames        : 4 frames
  23. Codec ID                                 : V_MPEG4/ISO/AVC
  24. Duration                                 : 1 h 41 min
  25. Bit rate                                 : 5 760 kb/s
  26. Width                                    : 1 920 pixels
  27. Height                                   : 1 080 pixels
  28. Display aspect ratio                     : 16:9
  29. Frame rate mode                          : Constant
  30. Frame rate                               : 24.000 FPS
  31. Color space                              : YUV
  32. Chroma subsampling                       : 4:2:0
  33. Bit depth                                : 8 bits
  34. Scan type                                : Progressive
  35. Bits/(Pixel*Frame)                       : 0.116
  36. Stream size                              : 3.98 GiB (91%)
  37. Writing library                          : x264 core 155 r2901 7d0ff22
  38. Encoding settings                        : cabac=1 / ref=4 / deblock=1:-3:-3 / analyse=0x3:0x133 / me=umh / subme=9 / psy=1 / psy_rd=1.10:0.25 / mixed_ref=1 / me_range=32 / chroma_me=1 / trellis=2 / 8x8dct=1 / cqm=0 / deadzone=6,6 / fast_pskip=1 / chroma_qp_offset=-4 / threads=34 / lookahead_threads=3 / sliced_threads=0 / nr=0 / decimate=1 / interlaced=0 / bluray_compat=0 / constrained_intra=0 / bframes=6 / b_pyramid=2 / b_adapt=2 / b_bias=0 / direct=3 / weightb=1 / open_gop=0 / weightp=2 / keyint=240 / keyint_min=24 / scenecut=40 / intra_refresh=0 / rc_lookahead=40 / rc=2pass / mbtree=1 / bitrate=5760 / ratetol=1.0 / qcomp=0.60 / qpmin=0 / qpmax=69 / qpstep=4 / cplxblur=20.0 / qblur=0.5 / vbv_maxrate=20000 / vbv_bufsize=25000 / nal_hrd=none / filler=0 / ip_ratio=1.40 / aq=1:1.00
  39. Default                                  : Yes
  40. Forced                                   : No
  41. Color range                              : Limited
  42. Color primaries                          : BT.709
  43. Transfer characteristics                 : BT.709
  44. Matrix coefficients                      : BT.709
  45. Statistics Tags Issue                    : mkvmerge v38.0.0 ('The Silent Type') 64-bit 2020-05-14 22:10:23 / mkvmerge v38.0.0 ('The Silent Type') 64-bit 2020-05-14 22:10:23 / UTC 2020-05-13T13:58:58Z
  46. FromStats_BitRate                        : 5756010
  47. FromStats_Duration                       : 01:41:01.084000000
  48. FromStats_FrameCount                     : 145466
  49. FromStats_StreamSize                     : 4360958124
  50.  
  51. Audio
  52. ID                                       : 2
  53. Format                                   : AC-3
  54. Format/Info                              : Audio Coding 3
  55. Commercial name                          : Dolby Digital
  56. Codec ID                                 : A_AC3
  57. Duration                                 : 1 h 41 min
  58. Bit rate mode                            : Constant
  59. Bit rate                                 : 448 kb/s
  60. Channel(s)                               : 6 channels
  61. Channel layout                           : L R C LFE Ls Rs
  62. Sampling rate                            : 48.0 kHz
  63. Frame rate                               : 31.250 FPS (1536 SPF)
  64. Bit depth                                : 16 bits
  65. Compression mode                         : Lossy
  66. Stream size                              : 324 MiB (7%)
  67. Title                                    : Surround
  68. Language                                 : Chinese
  69. Service kind                             : Complete Main
  70. Default                                  : Yes
  71. Forced                                   : No
  72. Statistics Tags Issue                    : mkvmerge v38.0.0 ('The Silent Type') 64-bit 2020-05-14 22:10:23 / mkvmerge v38.0.0 ('The Silent Type') 64-bit 2020-05-14 22:10:23 / UTC 2020-05-13T13:58:58Z
  73. FromStats_BitRate                        : 448000
  74. FromStats_Duration                       : 01:41:01.088000000
  75. FromStats_FrameCount                     : 189409
  76. FromStats_StreamSize                     : 339420928
  77.  
  78. Text
  79. ID                                       : 3
  80. Format                                   : UTF-8
  81. Codec ID                                 : S_TEXT/UTF8
  82. Codec ID/Info                            : UTF-8 Plain Text
  83. Title                                    : Forced
  84. Language                                 : English
  85. Default                                  : Yes
  86. Forced                                   : Yes
  87. Statistics Tags Issue                    : mkvmerge v38.0.0 ('The Silent Type') 64-bit 2020-05-14 22:10:23 / mkvmerge v38.0.0 ('The Silent Type') 64-bit 2020-05-14 22:10:23 / UTC 2020-05-13T13:58:58Z
  88. FromStats_BitRate                        : 45
  89. FromStats_Duration                       : 01:35:48.042000000
  90. FromStats_FrameCount                     : 1308
  91. FromStats_StreamSize                     : 32473
  92.  
  93. Menu
  94. 00:00:00.000                             : :Chapter 1
  95. 00:08:21.958                             : :Chapter 2
  96. 00:16:23.333                             : :Chapter 3
  97. 00:25:02.833                             : :Chapter 4
  98. 00:33:57.000                             : :Chapter 5
  99. 00:42:03.417                             : :Chapter 6
  100. 00:51:03.875                             : :Chapter 7
  101. 00:57:57.167                             : :Chapter 8
  102. 01:06:54.500                             : :Chapter 9
  103. 01:15:23.208                             : :Chapter 10
  104. 01:23:56.875                             : :Chapter 11
  105. 01:32:16.583                             : :Chapter 12
  106.  
  107.  
  108.